如何查看电脑配置-正版win7系统

avc格式
2023年4月1日发(作者: net framework 3 5 下载)

Format : MPEG-4

格式:MPEG - 4

Format profile : Base Media

简介:基础媒体格式

Codec ID : isom

身份:一些编解码器

File size : 4.35 MiB

文件大小:4.35

Duration : 1mn 6s

持续时间:式中

Overall bit rate : 547 Kbps

整体比特率:547

Encoded date : UTC 2012-04-05 02:24:14

编码日期:2012-04-0502:24:14协调世界时

Tagged date : UTC 2012-04-05 02:24:14

标记日期:2012-04-0502:24:14协调世界时

Video #1

视频#1

ID : 1

编号:1

Format : AVC

格式:标准

Format/Info : Advanced Video Codec

格式信息:高级视频编码

Format profile : High@L5.1

简介:高@ l5.1格式

Format settings, CABAC : Yes

格式的设置,它:是的

Format settings, ReFrames : 9 frames

格式设置,重构:9架

Codec ID : avc1

身份:avc1编解码器

Codec ID/Info : Advanced Video Coding

编解码器的身份信息:高级视频编码

Duration : 1mn 6s

持续时间:式中

Bit rate mode : Variable

比特率模式:变量

Bit rate : 501 Kbps

比特率:501

Maximum bit rate : 1 438 Kbps

最大比特率:1438

Width : 576 pixels

宽度:576像素

Height : 432 pixels

高度:432像素

Display aspect ratio : 4:3

显示方面的比率:3

Frame rate mode : Constant

帧速率模式:常量

Frame rate : 25.000 fps

速度:每秒25帧

Color space : YUV

彩色空间转换

Chroma subsampling : 4:2:0

色度抽样:4 : 2 : 0

Bit depth : 8 bits

比特深度:8位

Scan type : Progressive

扫描类型:进

Bits/(Pixel*Frame) : 0.081

比特/(像素*框架):0.081

Stream size : 3.98 MiB (91%)

流的大小:3.98(91%)

Encoded date : UTC 2012-04-05 02:24:14

编码日期:2012-04-0502:24:14协调世界时

Tagged date : UTC 2012-04-05 02:24:14

标记日期:2012-04-0502:24:14协调世界时

Audio #2

音频#2

ID : 2

编号:2

Format : AAC

格式:格式

Format/Info : Advanced Audio Codec

格式信息:先进的音频编解码器

Format version : Version 4

格式版本:4版

Format profile : LC

简介:信用证格式

Format settings, SBR : Yes

格式设置,丁苯橡胶:是的

Format settings, PS : No

格式设置,注:无

Codec ID : 40

编解码器编号:40

Duration : 1mn 6s

持续时间:式中

Bit rate mode : Variable

比特率模式:变量

Bit rate : 43.9 Kbps

比特率:43.9

Maximum bit rate : 50.6 Kbps

最大比特率:50.6

Channel(s) : 2 channels

通道(拧):2个频道

Channel positions : Front: L R

通道位置:前:我是

Sampling rate : 44.1 KHz

采样率:44.1千赫

Stream size : 358 KiB (8%)

流的大小:358肾型传(8%)

Encoded date : UTC 2012-04-05 02:24:14

编码日期:2012-04-0502:24:14协调世界时

Tagged date : UTC 2012-04-05 02:24:14

标记日期:2012-04-0502:24:14协调世界时

更多推荐

avc格式